Zone Telechargement - Site de Téléchargement Gratuit https://www.zone-telechargement.ws/ ru Zone Telechargement - Site de Téléchargement Gratuit https://www.zone-telechargement.ws/yandexlogo.gif Zone Telechargement - Site de Téléchargement Gratuit https://www.zone-telechargement.ws/ DataLife Engine SPECIAL CORRESPONDENTS https://www.zone-telechargement.ws/films-gratuit/17229-special-correspondents-webrip-french.html SPECIAL CORRESPONDENTS Qualité Webrip | FRENCH Origine : Britannique Réalisation : Ricky Gervais Durée : 1h 40min Acteur(s) : Eric Bana,Ricky Gervais,Vera Farmiga Genre : Comédie dramatique Date de sortie : 17 mai 2016en VOD Année de production : 2016 Distributeur : Netflix France Critiques Spectateurs : 2,4 Bande annonce :Cliquez ici pour visualiser la bande annonce Un journaliste radio à New York se voit obligé de partir couvrir un conflit pour sauver sa place... NFO:  Afficher / Masquer le texteGeneral Complete name : Special.Correspondents.2016.FRENCH.WEBRip.XviD-AM84.avi Format : AVI Format/Info : Audio Video Interleave File size : 1.37 GiB Duration : 1 h 40 min Overall bit rate : 1 953 kb/s Writing library : VirtualDub Fr build 32618/release Video ID : 0 Format : MPEG-4 Visual Format profile : Advanced Simple@L5 Format settings, BVOP : 2 Format settings, QPel : No Format settings, GMC : No warppoints Format settings, Matrix : Default (H.263) Muxing mode : Packed bitstream Codec ID : XVID Codec ID/Hint : XviD Duration : 1 h 40 min Bit rate : 1 816 kb/s Width : 720 pixels Height : 384 pixels Display aspect ratio : 1.85:1 Frame rate : 24.000 FPS Color space : YUV Chroma subsampling : 4:2:0 Bit depth : 8 bits Scan type : Progressive Compression mode : Lossy Bits/(Pixel*Frame) : 0.274 Stream size : 1.27 GiB (93%) Writing library : XviD 64 Audio ID : 1 Format : MPEG Audio Format version : Version 1 Format profile : Layer 3 Mode : Joint stereo Mode extension : MS Stereo Codec ID : 55 Codec ID/Hint : MP3 Duration : 1 h 40 min Bit rate mode : Constant Bit rate : 128 kb/s Channel(s) : 2 channels Sampling rate : 48.0 kHz Compression mode : Lossy Stream size : 92.0 MiB (7%) Alignment : Split accross interleaves Interleave, duration : 42 ms (1.00 video frame) Interleave, preload duration : 500 ms Writing library : LAME3.99.5 Films Thu, 23 Feb 2017 16:04:45 +0200 laissez ce champs vide Les 100 - Saison 4 https://www.zone-telechargement.ws/telecharger-series/13189-les-100-saison-4-hdtv-vostfr.html Les 100Qualité HDTV | VOSTFR Episode 4 | Saison 4 la serie : Américaine Titre original : The 100 Réalisateur(s) : Jason Rothenberg Acteur(s) : Eliza Taylor, Paige Turco, Bob Morley Statut : En production Genre : Aventure, Drame, Science fiction Critiques Spectateurs : 4.2 Cliquez ici pour visualiser la bande annonce Après une apocalypse nucléaire causée par l'Homme lors d'une troisième Guerre Mondiale, les 318 survivants recensés se réfugient dans des stations spatiales et parviennent à y vivre et à se reproduire, atteignant le nombre de 4000. Mais 97 ans plus tard, le vaisseau mère, l'Arche, est en piteux état. Une centaine de jeunes délinquants emprisonnés au fil des années pour des crimes ou des trahisons sont choisis comme cobayes par les autorités pour redescendre sur Terre et tester les chances de survie. Dès leur arrivée, ils découvrent un nouveau monde dangereux mais fascinant... Séries Thu, 23 Feb 2017 15:56:52 +0200 laissez ce champs vide Les 100 - Saison 4 https://www.zone-telechargement.ws/telecharger-series/13188-les-100-saison-4-hd-720p-vostfr.html Les 100 - Saison 4Qualité HD 720p | VOSTFR Episode 4 | Saison 4 la serie : Américaine Titre original : The 100 Réalisateur(s) : Jason Rothenberg Acteur(s) : Eliza Taylor, Paige Turco, Bob Morley Statut : En production Genre : Aventure, Drame, Science fiction Critiques Spectateurs : 4.2 Cliquez ici pour visualiser la bande annonce Après une apocalypse nucléaire causée par l'Homme lors d'une troisième Guerre Mondiale, les 318 survivants recensés se réfugient dans des stations spatiales et parviennent à y vivre et à se reproduire, atteignant le nombre de 4000. Mais 97 ans plus tard, le vaisseau mère, l'Arche, est en piteux état. Une centaine de jeunes délinquants emprisonnés au fil des années pour des crimes ou des trahisons sont choisis comme cobayes par les autorités pour redescendre sur Terre et tester les chances de survie. Dès leur arrivée, ils découvrent un nouveau monde dangereux mais fascinant... Séries Thu, 23 Feb 2017 15:49:02 +0200 laissez ce champs vide Chicago Fire - Saison 5 https://www.zone-telechargement.ws/telecharger-series/5940-chicago-fire-saison-5-hdtv-vostfr.html Chicago Fire - Saison 5 Qualité HDTV | VOSTFR Episode 14 | Saison 5 la serie : Américaine Réalisateur(s) : Derek Haas, Michael Brandt Acteur(s) : Jesse Spencer, Taylor Kinney, Monica Raymund Statut : En production Genre : Drame, Action Critiques Spectateurs : 4.4 Cliquez ici pour visualiser la bande annonce Aucun travail n'est plus stressant, dangereux ou grisant que celui des pompiers, des secouristes et des auxiliaires médicaux de Chicago. Ces hommes et femmes d'élite de la caserne 51 bravent le danger quand d'autres prennent la fuite. Avec la pression, les responsabilités et les égos surdimensionnés viennent les désaccords et les tensions au sein des membres de l'équipe. Et quand la tragédie frappe l'un d'eux, la culpabilité et les reproches fusent. Pourtant, le moment venu de passer à l'action, les dissensions sont laissées de côté pour céder la place à la solidarité. Bienvenue au c?ur du quotidien des plus nobles des professions ! Séries Thu, 23 Feb 2017 15:36:20 +0200 laissez ce champs vide Strictly Criminal https://www.zone-telechargement.ws/films-gratuit/17225-strictly-criminal.html Strictly Criminal Qualité HDLight 1080p | TRUEFRENCH Origine : U.S.A. Réalisateur : Scott Cooper Acteurs : Johnny Depp, Joel Edgerton, Benedict Cumberbatch, Dakota Johnson, Kevin Bacon Genre : Policier, Thriller Durée : 2h 03min Date de sortie : 25 Novembre 2015 Année de production : 2015 Titre original : Black Mass Interdit aux moins de 12 Le quartier de South Boston dans les années 70. L'agent du FBI John Connolly convainc le caïd irlandais James "Whitey" Bulger de collaborer avec l'agence fédérale afin d'éliminer un ennemi commun : la mafia italienne. Le film retrace l'histoire vraie de cette alliance contre nature qui a dégénéré et permis à Whitey d'échapper à la justice, de consolider son pouvoir et de s'imposer comme l'un des malfrats les plus redoutables de Boston et les plus puissants des États-Unis.  Afficher / Masquer le texte G?n?ral Nom complet : Strictly Criminal 2015 TRUEFRENCH HDLight 1080p x264 AC3-Wita.mkv Format : Matroska Version du format : Version 4 / Version 2 Taille du fichier : 2,95 Gio Dur?e : 2h 2mn D?bit global moyen : 3 439 Kbps Nom du film : *? Wita ?* Date d'encodage : UTC 2016-01-21 12:15:34 Application utilis?e : mkvmerge v8.8.0 ('Wind at my back') 64bit Biblioth?que utilis?e : libebml v1.3.3 + libmatroska v1.4.4 Vid?o ID : 3 Format : AVC Format/Info : Advanced Video Codec Profil du format : High@L4.1 Param?tres du format, CABAC : Oui Param?tres du format, RefFrames : 5 images Identifiant du codec : V_MPEG4/ISO/AVC Dur?e : 2h 2mn D?bit : 2 799 Kbps Largeur : 1 920 pixels Hauteur : 800 pixels Format ? l'?cran : 2,40:1 Type d'images/s : Constant Images par seconde : 23,976 (24000/1001) Im/s Espace de couleurs : YUV Sous-?chantillonnage de la chrominance : 4:2:0 Profondeur des couleurs : 8 bits Type de balayage : Progressif Bits/(Pixel*Image) : 0.076 Taille du flux : 2,40 Gio (81%) Titre : *? Wita ?* Biblioth?que utilis?e : x264 core 148 r2638 Param?tres d'encodage : cabac=1 / ref=5 / deblock=1:0:0 / analyse=0x3:0x133 / me=umh / subme=8 / psy=1 / psy_rd=1.00:0.00 / mixed_ref=1 / me_range=16 / chroma_me=1 / trellis=0 / 8x8dct=1 / cqm=0 / deadzone=21,11 / fast_pskip=0 / chroma_qp_offset=-2 / threads=12 / lookahead_threads=3 / sliced_threads=0 / nr=0 / decimate=1 / interlaced=0 / bluray_compat=0 / constrained_intra=0 / bframes=5 / b_pyramid=2 / b_adapt=2 / b_bias=0 / direct=3 / weightb=1 / open_gop=0 / weightp=2 / keyint=239 / keyint_min=23 / scenecut=40 / intra_refresh=0 / rc_lookahead=50 / rc=2pass / mbtree=1 / bitrate=2799 / ratetol=1.0 / qcomp=0.60 / qpmin=10 / qpmax=51 / qpstep=4 / cplxblur=20.0 / qblur=0.5 / vbv_maxrate=24000 / vbv_bufsize=24000 / nal_hrd=none / filler=0 / ip_ratio=1.40 / aq=1:1.00 Langue : Fran?ais Default : Oui Forced : Oui Audio ID : 1 Format : AC-3 Format/Info : Audio Coding 3 Extension du mode : CM (complete main) Param?tres du format, Endianness : Big Identifiant du codec : A_AC3 Dur?e : 2h 2mn Type de d?bit : Constant D?bit : 640 Kbps Canaux : 6 canaux Position des cannaux : Front: L C R, Side: L R, LFE Echantillonnage : 48,0 KHz Images par seconde : 31,250 Im/s (1536 spf) Mode de compression : Avec perte Taille du flux : 561 Mio (19%) Titre : AC3 Fr Langue : Fran?ais Default : Oui Forced : Oui Texte ID : 2 Format : UTF-8 Identifiant du codec : S_TEXT/UTF8 Identifiant du codec/Info : UTF-8 Plain Text Dur?e : 2h 1mn D?bit : 1 bps Count of elements : 44 Taille du flux : 1,75 Kio (0%) Titre : FR Forc? Langue : Fran?ais Default : Oui Forced : Oui Menu 00:00:00.000 : en:00:00:00.000 00:09:44.292 : en:00:09:44.292 00:18:27.523 : en:00:18:27.523 00:31:22.130 : en:00:31:22.130 00:41:49.507 : en:00:41:49.507 00:51:58.782 : en:00:51:58.782 00:59:19.890 : en:00:59:19.890 01:09:17.779 : en:01:09:17.779 01:19:53.956 : en:01:19:53.956 01:28:47.906 : en:01:28:47.906 01:39:44.270 : en:01:39:44.270 01:52:18.732 : en:01:52:18.732 01:55:14.407 : en:01:55:14.407 Films Thu, 23 Feb 2017 15:32:14 +0200 laissez ce champs vide Autómata https://www.zone-telechargement.ws/films-gratuit/17224-autmata.html Autómata Qualité HDLight 1080p | MULTI Origine : Espagnol Réalisation : Gabe Ibáñez Durée : 1h 50min Acteur(s) : Antonio Banderas,Dylan McDermott,Melanie Griffith Genre : Science fiction,Thriller Date de sortie : 5 octobre 2015 Année de production : 2014 Critiques Spectateurs : 2,8 Critiques Presse : Aucune information ... Bande annonce : [allocine]19559649[/allocine] Cliquez ici pour visualiser la bande annonce Jacq Vaucan, un agent d'assurance de ROC robotics corporation, fait des tests sur des robots. Ce qu'il découvre va avoir de profondes conséquences sur l'avenir de l'humanité.  Afficher / Masquer le texteGeneral Complete name : Automata.2014.MULTi.VF2.1080p.HDlight.x264-SVR.mkv Format : Matroska Format version : Version 2 File size : 2.94 GiB Duration : 1h 49mn Overall bit rate : 3 834 Kbps Encoded date : UTC 2015-10-06 13:49:02 Writing application : mkvmerge v5.6.0 ('Kenya Kane') built on May 28 2012 06:47:39 Writing library : libebml v1.2.2 + libmatroska v1.3.0 Video ID : 2 Format : AVC Format/Info : Advanced Video Codec Format profile : High@L4.1 Format settings, CABAC : Yes Format settings, ReFrames : 5 frames Muxing mode : Header stripping Codec ID : V_MPEG4/ISO/AVC Duration : 1h 49mn Bit rate : 2 500 Kbps Width : 1 920 pixels Height : 816 pixels Display aspect ratio : 2.35:1 Frame rate mode : Constant Frame rate : 23.976 fps Color space : YUV Chroma subsampling : 4:2:0 Bit depth : 8 bits Scan type : Progressive Bits/(Pixel*Frame) : 0.067 Stream size : 1.85 GiB (63%) Writing library : x264 core 130 r2273 b3065e6 Encoding settings : cabac=1 / ref=5 / deblock=1:0:0 / analyse=0x3:0x113 / me=umh / subme=8 / psy=1 / psy_rd=1.00:0.00 / mixed_ref=0 / me_range=16 / chroma_me=1 / trellis=2 / 8x8dct=1 / cqm=0 / deadzone=21,11 / fast_pskip=1 / chroma_qp_offset=-2 / threads=6 / lookahead_threads=1 / sliced_threads=0 / nr=0 / decimate=1 / interlaced=0 / bluray_compat=0 / constrained_intra=0 / bframes=5 / b_pyramid=2 / b_adapt=2 / b_bias=0 / direct=1 / weightb=1 / open_gop=0 / weightp=1 / keyint=240 / keyint_min=24 / scenecut=40 / intra_refresh=0 / rc_lookahead=10 / rc=abr / mbtree=1 / bitrate=2500 / ratetol=1.0 / qcomp=0.60 / qpmin=0 / qpmax=69 / qpstep=4 / vbv_maxrate=62500 / vbv_bufsize=78125 / nal_hrd=none / ip_ratio=1.40 / aq=1:1.00 Language : English Default : Yes Forced : No Color range : Limited Color primaries : BT.709 Transfer characteristics : BT.709 Matrix coefficients : BT.709 Audio #1 ID : 3 Format : AC-3 Format/Info : Audio Coding 3 Mode extension : CM (complete main) Format settings, Endianness : Big Muxing mode : Header stripping Codec ID : A_AC3 Duration : 1h 49mn Bit rate mode : Constant Bit rate : 448 Kbps Channel(s) : 6 channels Channel positions : Front: L C R, Side: L R, LFE Sampling rate : 48.0 KHz Compression mode : Lossy Delay relative to video : 200ms Stream size : 352 MiB (12%) Title : VFF 448 kbps Language : French Default : Yes Forced : Yes Audio #2 ID : 4 Format : AC-3 Format/Info : Audio Coding 3 Mode extension : CM (complete main) Format settings, Endianness : Big Muxing mode : Header stripping Codec ID : A_AC3 Duration : 1h 49mn Bit rate mode : Constant Bit rate : 448 Kbps Channel(s) : 6 channels Channel positions : Front: L C R, Side: L R, LFE Sampling rate : 48.0 KHz Compression mode : Lossy Stream size : 352 MiB (12%) Title : VFQ 448 kbps Language : French Default : No Forced : No Audio #3 ID : 5 Format : AC-3 Format/Info : Audio Coding 3 Mode extension : CM (complete main) Format settings, Endianness : Big Muxing mode : Header stripping Codec ID : A_AC3 Duration : 1h 49mn Bit rate mode : Constant Bit rate : 448 Kbps Channel(s) : 6 channels Channel positions : Front: L C R, Side: L R, LFE Sampling rate : 48.0 KHz Compression mode : Lossy Stream size : 352 MiB (12%) Title : ENG 448 kbps Language : English Default : No Forced : No Text #1 ID : 1 Format : UTF-8 Codec ID : S_TEXT/UTF8 Codec ID/Info : UTF-8 Plain Text Title : FR_FORCED Language : French Default : Yes Forced : Yes Text #2 ID : 6 Format : UTF-8 Codec ID : S_TEXT/UTF8 Codec ID/Info : UTF-8 Plain Text Title : FULL_FR SDH Language : French Default : No Forced : No Text #3 ID : 7 Format : UTF-8 Codec ID : S_TEXT/UTF8 Codec ID/Info : UTF-8 Plain Text Title : FULL_FR Language : French Default : No Forced : No Films Thu, 23 Feb 2017 15:24:52 +0200 laissez ce champs vide Stealing Cars https://www.zone-telechargement.ws/films-gratuit/17223-stealing-cars-hdlight-720p-french.html Stealing Cars Qualité HDLight 720p | FRENCH Origine : Américain Réalisation : Bradley Kaplan Durée : 1h 34min Acteur(s) : Emory Cohen, Heather Lind, Al Calderon, John Leguizamo, William H. Macy, Felicity Huffman, Paul Sparks, Mike Epps Genre : Drame Date de sortie : 13 Juin 20152015 Année de production : 2015 Bande annonce : Cliquez ici pour visualiser la bande annonce Billy Wyatt est un jeune homme avec un bel avenir devant lui, mais des erreurs de jeunesse le mènent à Bernville Camp, un centre de détention pour juvéniles. Billy doit se frayer un chemin à travers les dangereux détenus et les gardiens sévères et cruels, un parcours durant lequel il apprend à inspirer les autres et à mieux se connaître. NFO:  Afficher / Masquer le texteGeneral Unique ID : 172666987280743169957468944285262832321 (0x81E673BE358AF940AD98C0C545FE62C1) Complete name : Stealing.Cars.2016.French.mHD.720p.x264.AC3-JOKPIC.mkv Format : Matroska Format version : Version 4 / Version 2 File size : 1.73 GiB Duration : 1 h 41 min Overall bit rate : 2 436 kb/s Encoded date : UTC 2016-09-03 13:30:16 / UTC 2016-09-03T07:18:31Z Writing application : mkvmerge v7.5.0 ('Glass Culture') 64bit built on Jan 4 2015 16:48:44 Writing library : libebml v1.3.1 + libmatroska v1.4.2 / Lavf55.12.0 Video ID : 1 Format : AVC Format/Info : Advanced Video Codec Format profile : High@L4.1 Format settings, CABAC : Yes Format settings, ReFrames : 6 frames Codec ID : V_MPEG4/ISO/AVC Duration : 1 h 41 min Bit rate : 1 939 kb/s Width : 1 280 pixels Height : 688 pixels Display aspect ratio : 1.85:1 Frame rate mode : Constant Frame rate : 23.976 (24000/1001) FPS Color space : YUV Chroma subsampling : 4:2:0 Bit depth : 8 bits Scan type : Progressive Bits/(Pixel*Frame) : 0.092 Stream size : 1.37 GiB (80%) Writing library : x264 core 142 r2479 dd79a61 Encoding settings : cabac=1 / ref=6 / deblock=1:0:0 / analyse=0x3:0x133 / me=umh / subme=7 / psy=1 / psy_rd=1.00:0.00 / mixed_ref=1 / me_range=16 / chroma_me=1 / trellis=0 / 8x8dct=1 / cqm=0 / deadzone=21,11 / fast_pskip=0 / chroma_qp_offset=-2 / threads=6 / lookahead_threads=1 / sliced_threads=0 / nr=0 / decimate=1 / interlaced=0 / bluray_compat=0 / constrained_intra=0 / bframes=3 / b_pyramid=2 / b_adapt=2 / b_bias=0 / direct=3 / weightb=1 / open_gop=0 / weightp=2 / keyint=240 / keyint_min=24 / scenecut=40 / intra_refresh=0 / rc_lookahead=50 / rc=crf / mbtree=1 / crf=19.0 / qcomp=0.60 / qpmin=0 / qpmax=69 / qpstep=4 / ip_ratio=1.40 / aq=1:1.00 Default : Yes Forced : No Color range : Limited Color primaries : BT.601 NTSC Transfer characteristics : BT.709 Matrix coefficients : BT.601 Statistics Tags Issue : mkvmerge v7.5.0 ('Glass Culture') 64bit built on Jan 4 2015 16:48:44 2016-09-03 13:30:16 / mkvmerge v7.5.0 ('Glass Culture') 64bit built on Jan 4 2015 16:48:44 2016-09-03 13:30:16 / UTC 2016-09-03T07:18:31Z FromStats_BitRate : 1986064 FromStats_Duration : 01:41:29.042000000 FromStats_FrameCount : 145991 FromStats_StreamSize : 1511653903 Audio ID : 2 Format : AC-3 Format/Info : Audio Coding 3 Mode extension : CM (complete main) Format settings, Endianness : Big Codec ID : A_AC3 Duration : 1 h 41 min Bit rate mode : Constant Bit rate : 448 kb/s Channel(s) : 6 channels Channel positions : Front: L C R, Side: L R, LFE Sampling rate : 48.0 kHz Frame rate : 31.250 FPS (1536 spf) Bit depth : 16 bits Compression mode : Lossy Delay relative to video : -5 ms Stream size : 325 MiB (18%) Title : Surround Language : French Default : Yes Forced : No Statistics Tags Issue : mkvmerge v7.5.0 ('Glass Culture') 64bit built on Jan 4 2015 16:48:44 2016-09-03 13:30:16 / mkvmerge v7.5.0 ('Glass Culture') 64bit built on Jan 4 2015 16:48:44 2016-09-03 13:30:16 / UTC 2016-09-03T07:18:31Z FromStats_BitRate : 448000 FromStats_Duration : 01:41:29.056000000 FromStats_FrameCount : 190283 FromStats_StreamSize : 340987136 Films Thu, 23 Feb 2017 15:24:12 +0200 laissez ce champs vide Chicago Fire - Saison 5 https://www.zone-telechargement.ws/telecharger-series/5946-chicago-fire-saison-5-hd-720p-vostfr.html Chicago Fire - Saison 5 Qualité HD 720p | VOSTFR Episode 14 | Saison 5 la serie : Américaine Réalisateur(s) : Derek Haas, Michael Brandt Acteur(s) : Jesse Spencer, Taylor Kinney, Monica Raymund Statut : En production Genre : Drame, Action Critiques Spectateurs : 4.4 Cliquez ici pour visualiser la bande annonce Aucun travail n'est plus stressant, dangereux ou grisant que celui des pompiers, des secouristes et des auxiliaires médicaux de Chicago. Ces hommes et femmes d'élite de la caserne 51 bravent le danger quand d'autres prennent la fuite. Avec la pression, les responsabilités et les égos surdimensionnés viennent les désaccords et les tensions au sein des membres de l'équipe. Et quand la tragédie frappe l'un d'eux, la culpabilité et les reproches fusent. Pourtant, le moment venu de passer à l'action, les dissensions sont laissées de côté pour céder la place à la solidarité. Bienvenue au c?ur du quotidien des plus nobles des professions ! Séries Thu, 23 Feb 2017 15:21:00 +0200 laissez ce champs vide Hero https://www.zone-telechargement.ws/films-gratuit/17222--hero.html Hero Qualité HDLight 1080p | MULTI Origine : Chinois Réalisation : Yimou Zhang Durée : 1h 38min Acteur(s) : Jet Li,Maggie Cheung,Zhang Ziyi Genre : Historique,Drame,Action,Aventure Date de sortie : 24 septembre 2003 Année de production : 2002 Titre original : Ying Xiong Il y a deux mille ans, la Chine était divisée en sept royaumes. Chacun d'eux combattait les autres pour obtenir la suprématie, tandis que le peuple endurait la souffrance et la mort. De ces sept royaumes, Qin était le plus virulent. Le roi de Qin était obsédé par la conquête de la Chine et le désir de devenir son premier Empereur. Les autres royaumes dépêchèrent leurs plus redoutables assassins pour l'éliminer. Le seul nom de trois de ces tueurs suffisait à répandre la terreur : Lame Brisée, Flocon de Neige et Ciel Etoilé.A quiconque anéantirait ces trois assassins, le roi de Qin promit puissance et fortune.Pendant dix ans, personne n'y parvint. Lorsque le mystérieux Sans Nom se présenta au palais, avec en sa possession les armes des assassins abattus, le roi fut impatient d'entendre son histoire. Assis à dix pas du monarque, Sans Nom commença alors à la raconter...  Afficher / Masquer le texte∩╗┐General Identifiant unique : 212462237086453839872379543058371879554 (0x9FD6BD0AC5D77B2C99793BF27338A282) Nom complet : Hero (HD Light).mkv Format : Matroska Version du format : Version 4 / Version 2 Taille du fichier : 2,94 Gio Duree : 1 h 38 min Debit global moyen : 4 273 kb/s Nom du film : Ying xiong (2002) Date d'encodage : UTC 2016-10-15 00:45:12 / UTC 2016-10-14T17:55:43Z Application utilisee : mkvmerge v9.2.0 ('Photograph') 64bit Bibliotheque utilisee : libebml v1.3.3 + libmatroska v1.4.4 / Lavf55.12.0 Video ID : 1 Format : AVC Format/Info : Advanced Video Codec Profil du format : High@L4.2 Parametres du format, CABAC : Oui Parametres du format, RefFrames : 5 images Identifiant du codec : V_MPEG4/ISO/AVC Duree : 1 h 38 min Debit : 3 500 kb/s Largeur : 1 920 pixels Hauteur : 812 pixels Format a l'ecran : 2,35:1 Type d'images/s : Constant Images par seconde : 23,976 (24000/1001) Im/s Espace de couleurs : YUV Sous-echantillonnage de la chrominance : 4:2:0 Profondeur des couleurs : 8 bits Type de balayage : Progressif Bits/(Pixel*Image) : 0.094 Taille du flux : 2,36 Gio (80%) Bibliotheque utilisee : x264 core 142 r2479 dd79a61 Parametres d'encodage : cabac=1 / ref=5 / deblock=1:-1:-1 / analyse=0x3:0x113 / me=umh / subme=8 / psy=1 / psy_rd=1.00:0.15 / mixed_ref=1 / me_range=16 / chroma_me=1 / trellis=1 / 8x8dct=1 / cqm=0 / deadzone=21,11 / fast_pskip=1 / chroma_qp_offset=-3 / threads=6 / lookahead_threads=1 / sliced_threads=0 / nr=0 / decimate=1 / interlaced=0 / bluray_compat=0 / constrained_intra=0 / bframes=3 / b_pyramid=2 / b_adapt=2 / b_bias=0 / direct=3 / weightb=1 / open_gop=0 / weightp=2 / keyint=240 / keyint_min=24 / scenecut=40 / intra_refresh=0 / rc_lookahead=50 / rc=2pass / mbtree=1 / bitrate=3500 / ratetol=1.0 / qcomp=0.60 / qpmin=0 / qpmax=69 / qpstep=4 / cplxblur=20.0 / qblur=0.5 / vbv_maxrate=62500 / vbv_bufsize=78125 / nal_hrd=none / filler=0 / ip_ratio=1.40 / aq=1:1.00 Default : Oui Forced : Non Gamme de couleurs : Limited Coordonnees de chromaticite : BT.709 Caracteristiques du transfert : BT.709 Coefficients de la matrice : BT.709 Statistics Tags Issue : mkvmerge v9.2.0 ('Photograph') 64bit 2016-10-15 00:45:12 / mkvmerge v9.2.0 ('Photograph') 64bit 2016-10-15 00:45:12 / UTC 2016-10-14T17:55:43Z FromStats_BitRate : 3497796 FromStats_Duration : 01:38:39.914000000 FromStats_FrameCount : 141936 FromStats_StreamSize : 2588331451 Audio #1 ID : 2 Format : AC-3 Format/Info : Audio Coding 3 Extension du mode : CM (complete main) Parametres du format, Endianness : Big Identifiant du codec : A_AC3 Duree : 1 h 38 min Type de debit : Constant Debit : 384 kb/s Canaux : 6 canaux Position des cannaux : Front: L C R, Side: L R, LFE Echantillonnage : 48,0 kHz Images par seconde : 31,250 Im/s (1536 spf) Mode de compression : Avec perte Delai par rapport Video : -83 ms Taille du flux : 271 Mio (9%) Langue : Fran├ºais Default : Oui Forced : Non Statistics Tags Issue : mkvmerge v9.2.0 ('Photograph') 64bit 2016-10-15 00:45:12 / mkvmerge v9.2.0 ('Photograph') 64bit 2016-10-15 00:45:12 / UTC 2016-10-14T17:55:43Z FromStats_BitRate : 384000 FromStats_Duration : 01:38:39.936000000 FromStats_FrameCount : 184998 FromStats_StreamSize : 284156928 Audio #2 ID : 3 Format : AC-3 Format/Info : Audio Coding 3 Extension du mode : CM (complete main) Parametres du format, Endianness : Big Identifiant du codec : A_AC3 Duree : 1 h 38 min Type de debit : Constant Debit : 384 kb/s Canaux : 6 canaux Position des cannaux : Front: L C R, Side: L R, LFE Echantillonnage : 48,0 kHz Images par seconde : 31,250 Im/s (1536 spf) Mode de compression : Avec perte Delai par rapport Video : -83 ms Taille du flux : 271 Mio (9%) Langue : Chinois Default : Non Forced : Non Statistics Tags Issue : mkvmerge v9.2.0 ('Photograph') 64bit 2016-10-15 00:45:12 / mkvmerge v9.2.0 ('Photograph') 64bit 2016-10-15 00:45:12 / UTC 2016-10-14T17:55:43Z FromStats_BitRate : 384000 FromStats_Duration : 01:38:39.936000000 FromStats_FrameCount : 184998 FromStats_StreamSize : 284156928 Texte #1 ID : 4 Format : PGS Type de muxing : zlib Identifiant du codec : S_HDMV/PGS Identifiant du codec/Info : Picture based subtitle format used on BDs/HD-DVDs Titre : forces Langue : Fran├ºais Default : Non Forced : Non Statistics Tags Issue : mkvmerge v9.2.0 ('Photograph') 64bit 2016-10-15 00:45:12 / mkvmerge v9.2.0 ('Photograph') 64bit 2016-10-15 00:45:12 / UTC 2016-10-14T17:55:43Z FromStats_BitRate : 240 FromStats_Duration : 01:32:29.127000000 FromStats_FrameCount : 36 FromStats_StreamSize : 166490 Texte #2 ID : 5 Format : PGS Type de muxing : zlib Identifiant du codec : S_HDMV/PGS Identifiant du codec/Info : Picture based subtitle format used on BDs/HD-DVDs Titre : complets Langue : Fran├ºais Default : Non Forced : Non Statistics Tags Issue : mkvmerge v9.2.0 ('Photograph') 64bit 2016-10-15 00:45:12 / mkvmerge v9.2.0 ('Photograph') 64bit 2016-10-15 00:45:12 / UTC 2016-10-14T17:55:43Z FromStats_BitRate : 5080 FromStats_Duration : 01:38:05.171000000 FromStats_FrameCount : 1178 FromStats_StreamSize : 3737756 Menu 00:00:00.000 : :Chapter 1 00:01:09.069 : :Chapter 2 00:03:35.256 : :Chapter 3 00:07:10.638 : :Chapter 4 00:15:18.918 : :Chapter 5 00:19:14.069 : :Chapter 6 00:23:47.718 : :Chapter 7 00:29:35.231 : :Chapter 8 00:34:18.473 : :Chapter 9 00:38:55.917 : :Chapter 10 00:42:23.249 : :Chapter 11 00:47:32.474 : :Chapter 12 00:51:58.532 : :Chapter 13 00:55:13.727 : :Chapter 14 00:58:55.031 : :Chapter 15 01:05:54.450 : :Chapter 16 01:12:36.685 : :Chapter 17 01:16:39.678 : :Chapter 18 01:21:45.609 : :Chapter 19 01:28:48.072 : :Chapter 20 01:33:07.999 : :Chapter 21 Films Thu, 23 Feb 2017 15:18:47 +0200 laissez ce champs vide Ma Vie De Courgette https://www.zone-telechargement.ws/films-gratuit/17221-ma-vie-de-courgette.html Ma Vie De Courgette Qualité HDLight 1080p | FRENCH Origine : Suisse Réalisation : Claude Barras Durée : 1h 06min Acteur(s) : Gaspard Schlatter,Sixtine Murat,Paulin Jaccoud Genre : Animation,Drame Date de sortie : 19 octobre 2016 Année de production : 2015 Distributeur : Gebeka Films Courgette n’a rien d’un légume, c’est un vaillant petit garçon. Il croit qu’il est seul au monde quand il perd sa mère. Mais c’est sans compter sur les rencontres qu’il va faire dans sa nouvelle vie au foyer pour enfants. Simon, Ahmed, Jujube, Alice et Béatrice : ils ont tous leurs histoires et elles sont aussi dures qu’ils sont tendres. Et puis il y a cette fille, Camille. Quand on a 10 ans, avoir une bande de copains, tomber amoureux, il y en a des choses à découvrir et à apprendre. Et pourquoi pas même, être heureux. Films Thu, 23 Feb 2017 15:14:54 +0200 laissez ce champs vide